<?xml version="1.0" standalone="no"?>
<!DOCTYPE svg PUBLIC "-//W3C//DTD SVG 1.1//EN" "http://www.w3.org/Graphics/SVG/1.1/DTD/svg11.dtd" >
<svg xmlns="http://www.w3.org/2000/svg" xmlns:xlink="http://www.w3.org/1999/xlink" version="1.1">
<metadata>
Created by FontForge 20170731 at Mon Apr 30 13:46:01 2007
 By Aleksey,,,
 Dutch Design: Albert-Jan Pool, 1995. Published by FontShop International FontFont release 15
</metadata>
<defs>
<font id="DIN-Light" horiz-adv-x="514" >
  <font-face 
    font-family="DIN Light"
    font-weight="300"
    font-stretch="normal"
    units-per-em="1000"
    panose-1="0 0 0 0 0 0 0 0 0 0"
    ascent="800"
    descent="-200"
    x-height="482"
    cap-height="712"
    bbox="-100 -236 1099 975"
    underline-thickness="38"
    underline-position="-217"
    unicode-range="U+0020-FB02"
  />
<missing-glyph horiz-adv-x="1000" 
 />
    <glyph glyph-name=".notdef" horiz-adv-x="1000" 
 />
    <glyph glyph-name=".null" horiz-adv-x="0" 
 />
    <glyph glyph-name="nonmarkingreturn" horiz-adv-x="333" 
 />
    <glyph glyph-name="space" unicode=" " horiz-adv-x="255" 
 />
    <glyph glyph-name="exclam" unicode="!" horiz-adv-x="304" 
d="M194 712l-3 -520h-49l-3 520h55zM200 0h-67v67h67v-67z" />
    <glyph glyph-name="quotedbl" unicode="&#x22;" horiz-adv-x="408" 
d="M313 556h-63v156h63v-156zM158 556h-63v156h63v-156z" />
    <glyph glyph-name="numbersign" unicode="#" horiz-adv-x="639" 
d="M588 437h-100l-25 -153h96v-44h-103l-38 -240h-51l39 240h-176l-37 -240h-51l38 240h-96v44h103l25 153h-99v45h105l36 230h52l-37 -230h175l36 230h50l-36 -230h94v-45zM437 437h-175l-25 -153h175z" />
    <glyph glyph-name="dollar" unicode="$" horiz-adv-x="587" 
d="M528 191q0 -86 -58.5 -138.5t-159.5 -57.5v-109h-45v108q-68 3 -117.5 25t-96.5 69l38 38q43 -43 82.5 -61.5t93.5 -21.5v295l-16 2q-76 10 -127 52q-56 48 -56 131q0 84 53.5 136t145.5 58v89h45v-89q101 -5 182 -76l-35 -35q-66 59 -147 65v-290l29 -5q90 -16 127 -47
q62 -51 62 -138zM265 388v283q-69 -5 -107.5 -44t-38.5 -102q0 -62 37 -93q41 -35 109 -44zM474 189q0 65 -39 100q-9 8 -19.5 14t-18 9.5t-21.5 7t-20 4.5t-23.5 3t-22.5 3v-287q76 5 120 43t44 103z" />
    <glyph glyph-name="percent" unicode="%" horiz-adv-x="828" 
d="M759 127q0 -59 -36.5 -96.5t-94.5 -37.5t-95 37.5t-37 96.5v107q0 59 37 96.5t95 37.5t94.5 -37.5t36.5 -96.5v-107zM603 712l-332 -712h-45l332 712h45zM332 478q0 -59 -36.5 -96t-94.5 -37t-95 37t-37 96v107q0 59 37 96.5t95 37.5t94.5 -37.5t36.5 -96.5v-107z
M715 129v103q0 98 -87 98q-88 0 -88 -98v-103q0 -98 88 -98q87 0 87 98zM288 480v103q0 98 -87 98q-88 0 -88 -98v-103q0 -97 88 -97q87 0 87 97z" />
    <glyph glyph-name="ampersand" unicode="&#x26;" horiz-adv-x="746" 
d="M662 0h-69l-69 84q-93 -90 -219 -90q-98 0 -159.5 56t-61.5 147q0 40 12 72.5t40 61t48.5 44t62.5 43.5q-24 29 -38.5 48.5t-27.5 50t-13 59.5q0 60 42 101t103 41t103 -41.5t42 -101.5q0 -73 -82 -128q-36 -25 -53 -36l204 -247q24 37 33 73.5t9 103.5h53
q0 -141 -62 -217zM405 575q0 40 -26.5 67.5t-65.5 27.5t-65 -26t-26 -66q0 -27 14.5 -54t55.5 -77l41 28q34 23 53 45.5t19 54.5zM494 121l-216 261q-74 -51 -97 -76q-43 -46 -43 -106q0 -70 46 -114t120 -44q101 0 190 79z" />
    <glyph glyph-name="quotesingle" unicode="'" horiz-adv-x="253" 
d="M158 556h-63v156h63v-156z" />
    <glyph glyph-name="parenleft" unicode="(" horiz-adv-x="284" 
d="M217 -59l-35 -35q-51 51 -66 80q-19 37 -19 93v554q0 56 19 93q15 29 66 80l35 -35q-44 -44 -54 -65q-15 -32 -15 -79v-542q0 -47 15 -79q10 -21 54 -65z" />
    <glyph glyph-name="parenright" unicode=")" horiz-adv-x="284" 
d="M187 79q0 -58 -19 -93q-15 -29 -66 -80l-37 37q44 44 54 65q14 29 14 77v542q0 48 -14 77q-10 21 -54 65l37 37q51 -51 66 -80q19 -35 19 -93v-554z" />
    <glyph glyph-name="asterisk" unicode="*" horiz-adv-x="467" 
d="M395 476l-22 -38l-120 73l3 -141h-45l3 141l-120 -73l-22 38l123 68l-123 68l22 38l120 -73l-3 141h45l-3 -141l120 73l22 -38l-123 -68z" />
    <glyph glyph-name="plus" unicode="+" 
d="M461 240h-180v-181h-47v181h-181v47h181v180h47v-180h180v-47z" />
    <glyph glyph-name="comma" unicode="," horiz-adv-x="258" 
d="M163 -68l-68 -68v204h68v-136z" />
    <glyph glyph-name="hyphen" unicode="-" horiz-adv-x="426" 
d="M344 240h-262v47h262v-47z" />
    <glyph glyph-name="period" unicode="." horiz-adv-x="264" 
d="M169 0h-74v74h74v-74z" />
    <glyph glyph-name="slash" unicode="/" horiz-adv-x="338" 
d="M338 786l-285 -860h-53l285 860h53z" />
    <glyph glyph-name="zero" unicode="0" 
d="M444 184q0 -83 -52.5 -136.5t-134.5 -53.5t-134.5 53.5t-52.5 136.5v344q0 83 52.5 136.5t134.5 53.5t134.5 -53.5t52.5 -136.5v-344zM393 189v334q0 66 -35.5 108t-100.5 42t-100.5 -42t-35.5 -108v-334q0 -66 35.5 -108t100.5 -42t100.5 42t35.5 108z" />
    <glyph glyph-name="one" unicode="1" 
d="M313 0h-51v654l-129 -114v61l129 111h51v-712z" />
    <glyph glyph-name="two" unicode="2" 
d="M449 0h-377v45l286 375q40 51 40 111q0 65 -36.5 103.5t-100.5 38.5q-60 0 -98.5 -35.5t-38.5 -106.5h-51q0 82 50.5 134.5t137.5 52.5q85 0 136.5 -51t51.5 -136q0 -73 -49 -137l-267 -349h316v-45z" />
    <glyph glyph-name="three" unicode="3" 
d="M447 190q0 -92 -57 -144.5t-145 -52.5q-87 0 -142.5 45.5t-60.5 134.5h51q5 -68 48 -101.5t104 -33.5q65 0 108 41t43 111q0 152 -155 152h-12v45h12q141 0 141 143q0 68 -39 106t-99 38q-62 0 -98.5 -34.5t-43.5 -95.5h-51q7 82 60.5 128.5t132.5 46.5q84 0 136.5 -52
t52.5 -137q0 -119 -101 -162q115 -39 115 -178z" />
    <glyph glyph-name="four" unicode="4" 
d="M471 117h-95v-117h-51v117h-282v45l262 550h54l-262 -550h228v226h51v-226h95v-45z" />
    <glyph glyph-name="five" unicode="5" 
d="M451 233q0 -64 -10.5 -109.5t-44.5 -79.5q-51 -51 -137 -51q-91 0 -137 48q-42 42 -48 116h51q16 -119 134 -119q62 0 98 36q19 19 29.5 49.5t12 52.5t1.5 57q0 39 -4.5 68.5t-17.5 59t-41 46t-70 16.5q-49 0 -83.5 -19.5t-45.5 -55.5h-45v364h342v-45h-297v-252
q46 53 135 53q77 0 120 -43q58 -58 58 -192z" />
    <glyph glyph-name="six" unicode="6" 
d="M448 201q0 -89 -50.5 -148t-137.5 -59q-88 0 -138.5 55.5t-50.5 144.5q0 68 40 149l183 369h51l-164 -329q36 17 83 17q85 0 134.5 -56.5t49.5 -142.5zM397 197q0 67 -36.5 112.5t-101.5 45.5q-63 0 -100 -43t-37 -115t37 -115t100 -43t100.5 43.5t37.5 114.5z" />
    <glyph glyph-name="seven" unicode="7" 
d="M459 667l-252 -667h-52l252 667h-270v-112h-51v157h373v-45z" />
    <glyph glyph-name="eight" unicode="8" 
d="M460 192q0 -85 -58 -141.5t-145 -56.5t-145 56.5t-58 141.5q0 118 113 178q-98 53 -98 162q0 80 53 133t135 53t135 -53t53 -133q0 -110 -97 -162q112 -59 112 -178zM394 532q0 62 -38 101.5t-99 39.5t-99 -39.5t-38 -101.5t38 -101.5t99 -39.5t99 39.5t38 101.5z
M409 192q0 65 -44 109.5t-108 44.5t-108 -44.5t-44 -109.5t43.5 -109t108.5 -44t108.5 44t43.5 109z" />
    <glyph glyph-name="nine" unicode="9" 
d="M443 518q0 -68 -40 -149l-183 -369h-51l164 329q-36 -17 -84 -17q-85 0 -134 56.5t-49 142.5q0 89 50.5 148t137.5 59q88 0 138.5 -55.5t50.5 -144.5zM392 515q0 71 -37.5 114.5t-100.5 43.5t-100 -43t-37 -115q0 -67 36 -112.5t101 -45.5q63 0 100.5 43t37.5 115z" />
    <glyph glyph-name="colon" unicode=":" horiz-adv-x="292" 
d="M197 312h-74v74h74v-74zM197 0h-74v74h74v-74z" />
    <glyph glyph-name="semicolon" unicode=";" horiz-adv-x="292" 
d="M197 312h-74v74h74v-74zM193 -68l-68 -68v204h68v-136z" />
    <glyph glyph-name="less" unicode="&#x3c;" horiz-adv-x="1027" 
d="M970 238h-819l379 -379h-69l-404 404l404 404h69l-379 -379h819v-50z" />
    <glyph glyph-name="equal" unicode="=" 
d="M461 316h-408v47h408v-47zM461 163h-408v47h408v-47z" />
    <glyph glyph-name="greater" unicode="&#x3e;" horiz-adv-x="1027" 
d="M970 263l-404 -404h-69l379 379h-819v50h819l-379 379h69z" />
    <glyph glyph-name="question" unicode="?" horiz-adv-x="488" 
d="M438 542q0 -55 -44 -119l-85 -125q-18 -26 -18 -60v-47h-51v45q0 48 29 90l84 124q34 51 34 92q0 56 -36.5 93.5t-91.5 37.5q-57 0 -92.5 -38.5t-35.5 -92.5h-51q0 73 50.5 124.5t128.5 51.5q76 0 127.5 -50.5t51.5 -125.5zM299 0h-67v67h67v-67z" />
    <glyph glyph-name="at" unicode="@" horiz-adv-x="697" 
d="M620 0h-51v59q-48 -66 -139 -66q-89 0 -139 65q-43 58 -43 183t39 181q46 67 142 67q88 0 140 -68v89q0 77 -41 119q-42 42 -114 42h-132q-71 0 -113 -42q-23 -23 -32 -49t-9 -70v-353q0 -51 12.5 -76.5t49.5 -52.5l-35 -35q-47 32 -62.5 65t-15.5 99v350q0 94 55 151
q52 54 141 54h150q87 0 141 -54q56 -56 56 -151v-507zM569 241q0 43 -4.5 74t-17.5 63t-41.5 49t-71.5 17t-71.5 -17t-41.5 -49t-17.5 -63t-4.5 -74t4.5 -74t17.5 -63t41.5 -49t71.5 -17t71.5 17t41.5 49t17.5 63t4.5 74z" />
    <glyph glyph-name="A" unicode="A" horiz-adv-x="602" 
d="M587 0h-58l-62 173h-332l-62 -173h-58l262 712h48zM450 221l-149 419l-149 -419h298z" />
    <glyph glyph-name="B" unicode="B" horiz-adv-x="671" 
d="M589 194q0 -93 -56 -143.5t-153 -50.5h-270v712h262q91 0 148.5 -50t57.5 -136q0 -56 -30 -99.5t-81 -60.5q58 -19 90 -64.5t32 -107.5zM524 526q0 70 -44 104t-114 34h-202v-276h202q70 0 114 34t44 104zM535 194q0 68 -44 107t-117 39h-210v-292h210q73 0 117 39
t44 107z" />
    <glyph glyph-name="C" unicode="C" horiz-adv-x="644" 
d="M568 202q-17 -96 -82.5 -152t-159.5 -56q-105 0 -178 73q-45 45 -55.5 99.5t-10.5 189.5t10.5 189.5t55.5 99.5q73 73 178 73q95 0 160 -55.5t82 -152.5h-55q-16 74 -65.5 117t-121.5 43q-80 0 -135 -55q-36 -36 -45.5 -86t-9.5 -173t9.5 -173t45.5 -86q55 -55 135 -55
q72 0 122.5 43t66.5 117h53z" />
    <glyph glyph-name="D" unicode="D" horiz-adv-x="678" 
d="M596 366q0 -56 -1 -81t-6.5 -75t-21 -85t-40.5 -60q-65 -65 -178 -65h-239v712h239q113 0 178 -65q26 -26 41 -57.5t20.5 -77t6.5 -68.5t1 -78zM542 366q0 118 -12 165q-13 49 -41 78q-54 55 -153 55h-172v-616h172q99 0 153 55q25 25 37.5 74.5t14 83t1.5 90.5v15z" />
    <glyph glyph-name="E" unicode="E" horiz-adv-x="598" 
d="M542 0h-432v712h432v-48h-378v-281h322v-48h-322v-287h378v-48z" />
    <glyph glyph-name="F" unicode="F" horiz-adv-x="576" 
d="M542 664h-378v-293h322v-48h-322v-323h-54v712h432v-48z" />
    <glyph glyph-name="G" unicode="G" horiz-adv-x="651" 
d="M571 248q0 -110 -58 -172q-74 -82 -187 -82q-105 0 -178 73q-45 45 -55.5 99.5t-10.5 189.5t10.5 189.5t55.5 99.5q73 73 178 73q94 0 160.5 -57t82.5 -151h-54q-16 74 -66.5 117t-122.5 43q-80 0 -135 -55q-36 -36 -45.5 -86t-9.5 -173t9.5 -173t45.5 -86
q55 -55 135 -55q91 0 148 69q43 53 43 141v64h-191v48h245v-116z" />
    <glyph glyph-name="H" unicode="H" horiz-adv-x="699" 
d="M589 0h-54v335h-371v-335h-54v712h54v-329h371v329h54v-712z" />
    <glyph glyph-name="I" unicode="I" horiz-adv-x="274" 
d="M164 0h-54v712h54v-712z" />
    <glyph glyph-name="J" unicode="J" horiz-adv-x="498" 
d="M398 210q0 -98 -58 -157t-154 -59q-95 0 -156 61l37 37q25 -25 50.5 -37.5t68.5 -12.5q76 0 117 46.5t41 132.5v491h54v-502z" />
    <glyph glyph-name="K" unicode="K" horiz-adv-x="645" 
d="M627 0h-64l-229 399l-170 -206v-193h-54v712h54v-445l361 445h65l-220 -272z" />
    <glyph glyph-name="L" unicode="L" horiz-adv-x="572" 
d="M542 0h-432v712h54v-664h378v-48z" />
    <glyph glyph-name="M" unicode="M" horiz-adv-x="818" 
d="M708 0h-54v587l-216 -487h-54l-220 487v-587h-54v712h54l248 -549l242 549h54v-712z" />
    <glyph glyph-name="N" unicode="N" horiz-adv-x="739" 
d="M629 0h-54l-411 619v-619h-54v712h54l411 -617v617h54v-712z" />
    <glyph glyph-name="O" unicode="O" horiz-adv-x="652" 
d="M570 356q0 -135 -10.5 -189.5t-55.5 -99.5q-73 -73 -178 -73t-178 73q-45 45 -55.5 99.5t-10.5 189.5t10.5 189.5t55.5 99.5q73 73 178 73t178 -73q45 -45 55.5 -99.5t10.5 -189.5zM516 356q0 123 -9.5 173t-45.5 86q-55 55 -135 55t-135 -55q-36 -36 -45.5 -86
t-9.5 -173t9.5 -173t45.5 -86q55 -55 135 -55t135 55q36 36 45.5 86t9.5 173z" />
    <glyph glyph-name="P" unicode="P" horiz-adv-x="631" 
d="M586 507q0 -95 -60 -150t-155 -55h-207v-302h-54v712h261q95 0 155 -55t60 -150zM532 507q0 78 -45.5 117.5t-121.5 39.5h-201v-314h201q76 0 121.5 39.5t45.5 117.5z" />
    <glyph glyph-name="Q" unicode="Q" horiz-adv-x="651" 
d="M603 0l-36 -36l-84 84q-68 -54 -157 -54q-105 0 -178 73q-45 45 -55.5 99.5t-10.5 189.5t10.5 189.5t55.5 99.5q73 73 178 73t178 -73q45 -45 55.5 -99.5t10.5 -189.5q0 -125 -8 -178t-43 -94zM516 356q0 123 -9.5 173t-45.5 86q-55 55 -135 55t-135 -55
q-36 -36 -45.5 -86t-9.5 -173t9.5 -173t45.5 -86q55 -55 135 -55q68 0 121 42l-100 100l36 36l99 -99q22 32 28 80.5t6 154.5z" />
    <glyph glyph-name="R" unicode="R" horiz-adv-x="657" 
d="M593 0h-63l-170 328h-196v-328h-54v712h271q90 0 147 -50.5t57 -140.5q0 -78 -44 -128.5t-120 -63.5zM531 520q0 71 -43 107.5t-114 36.5h-210v-288h210q71 0 114 36.5t43 107.5z" />
    <glyph glyph-name="S" unicode="S" horiz-adv-x="587" 
d="M528 191q0 -90 -64.5 -143.5t-175.5 -53.5q-78 0 -132.5 22t-104.5 72l38 38q47 -47 92 -65.5t110 -18.5q85 0 134 39t49 108q0 65 -39 100q-19 16 -39 23.5t-64 14.5l-83 13q-81 12 -127 52q-56 47 -56 131q0 89 59.5 142t161.5 53q64 0 111 -18t94 -59l-35 -35
q-37 33 -75.5 49.5t-97.5 16.5q-77 0 -121 -39.5t-44 -107.5q0 -62 37 -93q41 -34 106 -44l77 -12q86 -13 127 -47q62 -51 62 -138z" />
    <glyph glyph-name="T" unicode="T" horiz-adv-x="539" 
d="M509 664h-213v-664h-54v664h-212v48h479v-48z" />
    <glyph glyph-name="U" unicode="U" horiz-adv-x="688" 
d="M588 231q0 -104 -68.5 -170.5t-175.5 -66.5t-175.5 66.5t-68.5 170.5v481h54v-474q0 -88 52 -142t138 -54t138 54t52 142v474h54v-481z" />
    <glyph glyph-name="V" unicode="V" horiz-adv-x="534" 
d="M524 712l-234 -712h-46l-234 712h57l200 -617l200 617h57z" />
    <glyph glyph-name="W" unicode="W" horiz-adv-x="842" 
d="M822 712l-178 -712h-55l-168 620l-168 -620h-55l-178 712h57l150 -619l166 619h56l166 -619l150 619h57z" />
    <glyph glyph-name="X" unicode="X" horiz-adv-x="532" 
d="M514 0h-63l-186 317l-186 -317h-61l218 365l-204 347h63l170 -299l171 299h62l-204 -347z" />
    <glyph glyph-name="Y" unicode="Y" horiz-adv-x="494" 
d="M484 712l-210 -417v-295h-54v295l-210 417h58l181 -360l177 360h58z" />
    <glyph glyph-name="Z" unicode="Z" horiz-adv-x="559" 
d="M496 0h-433v57l375 607h-360v48h418v-48l-378 -616h378v-48z" />
    <glyph glyph-name="bracketleft" unicode="[" horiz-adv-x="290" 
d="M245 -74h-148v860h148v-45h-97v-770h97v-45z" />
    <glyph glyph-name="backslash" unicode="\" horiz-adv-x="338" 
d="M338 -74h-53l-285 860h53z" />
    <glyph glyph-name="bracketright" unicode="]" horiz-adv-x="290" 
d="M193 -74h-148v42h100v776h-100v42h148v-860z" />
    <glyph glyph-name="asciicircum" unicode="^" 
d="M438 422h-51l-130 242l-130 -242h-51l158 296h46z" />
    <glyph glyph-name="underscore" unicode="_" 
d="M514 -160h-514v38h514v-38z" />
    <glyph glyph-name="grave" unicode="`" horiz-adv-x="500" 
d="M297 590h-58l-106 147h67z" />
    <glyph glyph-name="a" unicode="a" horiz-adv-x="524" 
d="M431 0h-51v48q-30 -30 -62.5 -42t-84.5 -12q-99 0 -142 44q-35 37 -35 94q0 66 44.5 102.5t123.5 36.5h156v54q0 59 -32 88.5t-104 29.5q-51 0 -80.5 -14t-52.5 -47l-37 32q30 41 69.5 57.5t100.5 16.5q187 0 187 -158v-330zM380 168v62h-150q-123 0 -123 -97
q0 -48 30.5 -71t95.5 -23q82 0 120 37q27 26 27 92z" />
    <glyph glyph-name="b" unicode="b" horiz-adv-x="540" 
d="M471 241q0 -143 -62 -205q-42 -42 -118 -42q-92 0 -143 68v-62h-51v712h51v-292q51 68 143 68q76 0 118 -42q62 -62 62 -205zM420 241q0 43 -5 75t-18.5 63t-42 47.5t-70.5 16.5t-70.5 -16.5t-42 -47.5t-18.5 -63t-5 -75t5 -75t18.5 -63t42 -47.5t70.5 -16.5t70.5 16.5
t42 47.5t18.5 63t5 75z" />
    <glyph glyph-name="c" unicode="c" horiz-adv-x="493" 
d="M440 68q-38 -42 -73.5 -58t-85.5 -16q-98 0 -155 66t-57 181t57 181t155 66q50 0 85.5 -16t73.5 -58l-35 -32q-31 34 -58 47.5t-66 13.5q-84 0 -128 -64q-33 -48 -33 -138t33 -138q44 -64 128 -64q39 0 66 13.5t58 47.5z" />
    <glyph glyph-name="d" unicode="d" horiz-adv-x="540" 
d="M443 0h-51v62q-51 -68 -143 -68q-76 0 -118 42q-62 62 -62 205t62 205q42 42 118 42q92 0 143 -68v292h51v-712zM392 241q0 43 -5 75t-18.5 63t-42 47.5t-70.5 16.5t-70.5 -16.5t-42 -47.5t-18.5 -63t-5 -75t5 -75t18.5 -63t42 -47.5t70.5 -16.5t70.5 16.5t42 47.5
t18.5 63t5 75z" />
    <glyph glyph-name="e" unicode="e" horiz-adv-x="523" 
d="M455 230h-335q0 -92 40.5 -141t116.5 -49q42 0 72 13.5t61 44.5l38 -30q-39 -39 -78 -56.5t-96 -17.5q-100 0 -152.5 63t-52.5 184q0 116 51 181.5t142 65.5q90 0 141.5 -62.5t51.5 -172.5v-23zM404 271q-2 54 -17 91q-16 37 -50 59t-75 22t-75 -22t-50 -59
q-15 -37 -17 -91h284z" />
    <glyph glyph-name="f" unicode="f" horiz-adv-x="304" 
d="M272 444h-109v-444h-51v444h-66v38h66v104q0 57 30.5 91.5t85.5 34.5h44v-45h-35q-74 0 -74 -80v-105h109v-38z" />
    <glyph glyph-name="g" unicode="g" horiz-adv-x="540" 
d="M443 -27q0 -93 -52.5 -151t-144.5 -58q-52 0 -85.5 14t-73.5 50l34 34q32 -29 57.5 -41t67.5 -12q73 0 109.5 46t36.5 121v86q-51 -68 -143 -68q-76 0 -118 42q-62 62 -62 205t62 205q42 42 118 42q92 0 143 -68v62h51v-509zM392 241q0 43 -5 75t-18.5 63t-42 47.5
t-70.5 16.5t-70.5 -16.5t-42 -47.5t-18.5 -63t-5 -75t5 -75t18.5 -63t42 -47.5t70.5 -16.5t70.5 16.5t42 47.5t18.5 63t5 75z" />
    <glyph glyph-name="h" unicode="h" horiz-adv-x="559" 
d="M468 0h-51v299q0 70 -34.5 107t-98.5 37t-100 -38t-36 -106v-299h-51v712h51v-287q54 63 142 63q82 0 130 -48.5t48 -131.5v-308z" />
    <glyph glyph-name="i" unicode="i" horiz-adv-x="245" 
d="M154 649h-63v63h63v-63zM148 0h-51v482h51v-482z" />
    <glyph glyph-name="j" unicode="j" horiz-adv-x="245" 
d="M154 649h-63v63h63v-63zM148 -105q0 -58 -29.5 -91.5t-86.5 -33.5h-44v45h35q41 0 57.5 19.5t16.5 61.5v586h51v-587z" />
    <glyph glyph-name="k" unicode="k" horiz-adv-x="527" 
d="M487 0h-63l-166 265l-110 -127v-138h-51v712h51v-502l239 272h65l-159 -180z" />
    <glyph glyph-name="l" unicode="l" horiz-adv-x="287" 
d="M255 0h-44q-57 0 -86.5 33.5t-29.5 91.5v587h51v-586q0 -42 16.5 -61.5t57.5 -19.5h35v-45z" />
    <glyph glyph-name="m" unicode="m" horiz-adv-x="878" 
d="M787 0h-50v299q0 70 -34.5 107t-98.5 37q-62 0 -99 -36.5t-37 -98.5v-308h-51v299q0 70 -34.5 107t-98.5 37t-100 -38t-36 -106v-299h-51v482h51v-57q54 63 143 63q110 0 155 -88q56 88 164 88q79 0 127 -46q50 -48 50 -134v-308z" />
    <glyph glyph-name="n" unicode="n" horiz-adv-x="559" 
d="M468 0h-51v299q0 70 -34.5 107t-98.5 37t-100 -38t-36 -106v-299h-51v482h51v-57q54 63 142 63q80 0 128 -46q50 -48 50 -134v-308z" />
    <glyph glyph-name="o" unicode="o" horiz-adv-x="526" 
d="M457 241q0 -134 -60 -194q-53 -53 -134 -53t-134 53q-60 60 -60 194t60 194q53 53 134 53t134 -53q60 -60 60 -194zM406 241q0 118 -43 161q-41 41 -100 41t-100 -41q-43 -43 -43 -161t43 -161q41 -41 100 -41t100 41q43 43 43 161z" />
    <glyph glyph-name="p" unicode="p" horiz-adv-x="540" 
d="M471 241q0 -143 -62 -205q-42 -42 -118 -42q-92 0 -143 68v-292h-51v712h51v-62q51 68 143 68q76 0 118 -42q62 -62 62 -205zM420 241q0 43 -5 75t-18.5 63t-42 47.5t-70.5 16.5t-70.5 -16.5t-42 -47.5t-18.5 -63t-5 -75t5 -75t18.5 -63t42 -47.5t70.5 -16.5t70.5 16.5
t42 47.5t18.5 63t5 75z" />
    <glyph glyph-name="q" unicode="q" horiz-adv-x="540" 
d="M443 -230h-51v292q-51 -68 -143 -68q-76 0 -118 42q-62 62 -62 205t62 205q42 42 118 42q92 0 143 -68v62h51v-712zM392 241q0 43 -5 75t-18.5 63t-42 47.5t-70.5 16.5t-70.5 -16.5t-42 -47.5t-18.5 -63t-5 -75t5 -75t18.5 -63t42 -47.5t70.5 -16.5t70.5 16.5t42 47.5
t18.5 63t5 75z" />
    <glyph glyph-name="r" unicode="r" horiz-adv-x="409" 
d="M405 442l-37 -37q-22 22 -41.5 30t-49.5 8q-60 0 -94.5 -42.5t-34.5 -103.5v-297h-51v482h51v-64q21 33 59 51.5t82 18.5q70 0 116 -46z" />
    <glyph glyph-name="s" unicode="s" horiz-adv-x="494" 
d="M438 137q0 -66 -52 -104.5t-141 -38.5q-123 0 -195 69l35 35q56 -59 158 -59q145 0 145 98q0 37 -22.5 56.5t-69.5 24.5l-80 7q-145 12 -145 126q0 62 47 99.5t126 37.5q102 0 169 -51l-34 -34q-56 41 -135 41q-59 0 -91 -24.5t-32 -68.5q0 -38 23.5 -57.5t74.5 -23.5
l78 -7q68 -6 104.5 -33.5t36.5 -92.5z" />
    <glyph glyph-name="t" unicode="t" horiz-adv-x="325" 
d="M269 0h-44q-55 0 -85.5 34.5t-30.5 91.5v318h-66v38h66v154h51v-154h109v-38h-109v-319q0 -80 74 -80h35v-45z" />
    <glyph glyph-name="u" unicode="u" horiz-adv-x="559" 
d="M462 0h-51v57q-54 -63 -142 -63q-80 0 -128 46q-50 48 -50 134v308h51v-299q0 -70 34.5 -107t98.5 -37t100 38t36 106v299h51v-482z" />
    <glyph glyph-name="v" unicode="v" horiz-adv-x="430" 
d="M416 482l-176 -482h-50l-176 482h56l145 -422l145 422h56z" />
    <glyph glyph-name="w" unicode="w" horiz-adv-x="712" 
d="M698 482l-154 -482h-52l-136 402l-136 -402h-52l-154 482h56l123 -422l138 422h50l138 -422l123 422h56z" />
    <glyph glyph-name="x" unicode="x" horiz-adv-x="460" 
d="M420 0h-62l-127 203l-129 -203h-62l163 246l-156 236h62l122 -194l120 194h62l-156 -236z" />
    <glyph glyph-name="y" unicode="y" horiz-adv-x="430" 
d="M416 482l-224 -613q-14 -39 -33 -56q-32 -31 -91 -31h-24v45h19q39 0 56.5 14t31.5 52l39 107l-176 482h56l145 -422l145 422h56z" />
    <glyph glyph-name="z" unicode="z" horiz-adv-x="452" 
d="M398 0h-344v48l290 389h-274v45h328v-48l-291 -389h291v-45z" />
    <glyph glyph-name="braceleft" unicode="{" horiz-adv-x="316" 
d="M266 -74h-14q-70 0 -97 27q-26 26 -26 95v207q0 42 -18 60q-19 19 -43 19h-18v44h18q24 0 43 19q18 18 18 60v207q0 69 26 95q27 27 97 27h14v-45h-13q-46 0 -59 -13q-14 -15 -14 -65v-207q0 -38 -14.5 -61t-46.5 -39q32 -16 46.5 -39t14.5 -61v-207q0 -50 14 -65
q13 -13 59 -13h13v-45z" />
    <glyph glyph-name="bar" unicode="|" horiz-adv-x="317" 
d="M184 -74h-51v860h51v-860z" />
    <glyph glyph-name="braceright" unicode="}" horiz-adv-x="316" 
d="M266 334h-18q-24 0 -43 -19q-18 -18 -18 -60v-207q0 -69 -26 -95q-27 -27 -97 -27h-14v45h13q46 0 59 13q14 15 14 65v207q0 38 14.5 61t46.5 39q-32 16 -46.5 39t-14.5 61v207q0 50 -14 65q-13 13 -59 13h-13v45h14q70 0 97 -27q26 -26 26 -95v-207q0 -42 18 -60
q19 -19 43 -19h18v-44z" />
    <glyph glyph-name="asciitilde" unicode="~" 
d="M461 277q-39 -39 -62 -50.5t-54 -11.5q-28 0 -102 31q-54 23 -76 23t-38 -8t-45 -37l-31 31q39 39 62 50.5t54 11.5q28 0 102 -31q54 -23 76 -23t38 8t45 37z" />
    <glyph glyph-name="nbspace" unicode="&#xa0;" horiz-adv-x="255" 
 />
    <glyph glyph-name="exclamdown" unicode="&#xa1;" horiz-adv-x="304" 
d="M171 415h-67v67h67v-67zM165 -230h-55l3 520h49z" />
    <glyph glyph-name="cent" unicode="&#xa2;" horiz-adv-x="498" 
d="M440 193q-36 -40 -69 -56t-79 -18v-119h-43v121q-84 11 -132 75.5t-48 169.5t48 169.5t132 75.5v101h43v-99q46 -2 79 -18t69 -56l-35 -32q-28 32 -53.5 45.5t-59.5 15.5v-404q34 2 59.5 15.5t53.5 45.5zM249 167v398q-61 -11 -96 -61q-33 -48 -33 -138t33 -138
q35 -50 96 -61z" />
    <glyph glyph-name="sterling" unicode="&#xa3;" horiz-adv-x="537" 
d="M482 0h-368v342h-64v38h64v122q0 98 58 157t154 59q95 0 156 -61l-37 -37q-25 25 -50.5 37.5t-68.5 12.5q-76 0 -117 -46.5t-41 -132.5v-111h158v-38h-158v-294h314v-48z" />
    <glyph glyph-name="currency" unicode="&#xa4;" horiz-adv-x="657" 
d="M572 54l-32 -32l-75 74q-59 -48 -137 -48t-137 48l-74 -74l-32 32l74 74q-48 59 -48 137q0 79 48 138l-74 73l32 32l74 -73q58 47 137 47t137 -47l75 73l32 -32l-74 -73q47 -58 47 -138q0 -79 -47 -137zM497 265q0 71 -49.5 120t-119.5 49t-119.5 -49t-49.5 -120
t49.5 -120t119.5 -49t119.5 49t49.5 120z" />
    <glyph glyph-name="yen" unicode="&#xa5;" horiz-adv-x="493" 
d="M483 712l-163 -326h108v-38h-127l-27 -53v-53h154v-38h-154v-204h-54v204h-155v38h155v53l-27 53h-128v38h109l-164 326h57l181 -361l179 361h56z" />
    <glyph glyph-name="brokenbar" unicode="&#xa6;" horiz-adv-x="328" 
d="M184 436h-51v350h51v-350zM184 -74h-51v350h51v-350z" />
    <glyph glyph-name="section" unicode="&#xa7;" horiz-adv-x="566" 
d="M469 247q0 -60 -31 -104t-79 -66q47 -16 75 -54.5t28 -91.5q0 -73 -50 -120t-129 -47q-76 0 -127.5 41.5t-56.5 113.5h54q10 -107 130 -107q58 0 91.5 31t33.5 88q0 40 -25.5 70t-68.5 42l-83 23q-63 18 -98.5 67t-35.5 114q0 60 31 104t79 66q-99 43 -99 141
q0 73 50.5 116.5t124.5 43.5q73 0 123.5 -40.5t54.5 -110.5h-53q-10 104 -125 104q-57 0 -89.5 -28.5t-32.5 -84.5q0 -82 91 -107l83 -23q62 -17 98 -66.5t36 -114.5zM415 247q0 66 -35 101q-41 41 -97 41q-59 0 -97 -41q-35 -38 -35 -101t35 -101q38 -41 97 -41t97 41
q35 38 35 101z" />
    <glyph glyph-name="dieresis" unicode="&#xa8;" horiz-adv-x="500" 
d="M383 600h-58v77h58v-77zM175 600h-58v77h58v-77z" />
    <glyph glyph-name="copyright" unicode="&#xa9;" horiz-adv-x="894" 
d="M809 356q0 -150 -106 -256t-256 -106t-256 106t-106 256t106 256t256 106t256 -106t106 -256zM761 356q0 129 -92.5 223.5t-221.5 94.5t-221.5 -94.5t-92.5 -223.5t92.5 -223.5t221.5 -94.5t221.5 94.5t92.5 223.5zM582 202q-58 -52 -131 -52q-87 0 -132 58t-45 148
t45 148.5t132 58.5q41 0 69.5 -12t61.5 -41l-30 -30q-47 42 -101 42q-70 0 -101 -46t-31 -120q0 -165 132 -165q55 0 101 41z" />
    <glyph glyph-name="ordfeminine" unicode="&#xaa;" horiz-adv-x="447" 
d="M356 327h-43v36q-42 -41 -114 -41q-78 0 -112 35q-28 28 -28 75q0 52 35.5 81.5t97.5 29.5h121v42q0 46 -24.5 68.5t-80.5 22.5q-40 0 -63 -10.5t-41 -37.5l-32 27q24 34 56 47t80 13q148 0 148 -126v-262zM313 461v47h-116q-95 0 -95 -75q0 -37 23 -54.5t74 -17.5
q65 0 94 28q20 19 20 72z" />
    <glyph glyph-name="guillemotleft" unicode="&#xab;" horiz-adv-x="527" 
d="M445 69l-196 196l196 196v-66l-130 -130l130 -130v-66zM238 69l-196 196l196 196v-66l-130 -130l130 -130v-66z" />
    <glyph glyph-name="logicalnot" unicode="&#xac;" 
d="M461 107h-47v133h-361v47h408v-180z" />
    <glyph glyph-name="registered" unicode="&#xae;" horiz-adv-x="894" 
d="M809 356q0 -150 -106 -256t-256 -106t-256 106t-106 256t106 256t256 106t256 -106t106 -256zM762 356q0 130 -93 224.5t-222 94.5t-222 -94.5t-93 -224.5t93 -224.5t222 -94.5t222 94.5t93 224.5zM595 156h-52l-99 167h-66v-167h-45v401h128q50 0 87 -34t37 -84
q0 -43 -24.5 -71.5t-66.5 -40.5zM540 439q0 33 -24 55t-60 22h-78v-153h78q36 0 60 21.5t24 54.5z" />
    <glyph glyph-name="macron" unicode="&#xaf;" horiz-adv-x="500" 
d="M398 608h-296v46h296v-46z" />
    <glyph glyph-name="degree" unicode="&#xb0;" horiz-adv-x="458" 
d="M386 562q0 -65 -46 -111t-111 -46t-111 46t-46 111t46 111t111 46t111 -46t46 -111zM341 562q0 49 -32.5 82t-80.5 33t-79.5 -32.5t-31.5 -82.5q0 -49 32 -82t80 -33t80 33t32 82z" />
    <glyph glyph-name="plusminus" unicode="&#xb1;" 
d="M461 270h-180v-182h-47v182h-181v47h181v181h47v-181h180v-47zM461 0h-408v47h408v-47z" />
    <glyph glyph-name="twosuperior" unicode="&#xb2;" horiz-adv-x="336" 
d="M286 285h-236v40l168 213q23 30 23 62q0 35 -19.5 55.5t-53.5 20.5q-32 0 -53 -18.5t-21 -57.5h-44q0 52 32 84t86 32q53 0 85.5 -31.5t32.5 -84.5q0 -44 -34 -87l-149 -188h183v-40z" />
    <glyph glyph-name="threesuperior" unicode="&#xb3;" horiz-adv-x="352" 
d="M302 402q0 -57 -35 -89.5t-90 -32.5q-54 0 -89.5 29t-37.5 85h45q2 -37 25 -55.5t57 -18.5q35 0 58 22t23 60q0 81 -84 81h-8v39h8q76 0 76 77q0 37 -21 57t-53 20q-33 0 -53 -18.5t-23 -51.5h-44q4 51 37 80.5t83 29.5q53 0 85.5 -32t32.5 -84q0 -70 -57 -95
q65 -24 65 -103z" />
    <glyph glyph-name="acute" unicode="&#xb4;" horiz-adv-x="500" 
d="M367 737l-106 -147h-58l97 147h67z" />
    <glyph glyph-name="mu" unicode="&#xb5;" horiz-adv-x="556" 
d="M459 0h-51v57q-54 -63 -142 -63q-79 0 -127 45v-269h-51v712h51v-299q0 -70 34.5 -107t98.5 -37t100 38t36 106v299h51v-482z" />
    <glyph glyph-name="paragraph" unicode="&#xb6;" horiz-adv-x="579" 
d="M469 -230h-51v894h-123v-894h-51v562q-91 0 -145 57t-54 133q0 78 56.5 134t154.5 56h213v-942z" />
    <glyph glyph-name="periodcentered" unicode="&#xb7;" horiz-adv-x="264" 
d="M169 227h-74v74h74v-74z" />
    <glyph glyph-name="cedilla" unicode="&#xb8;" horiz-adv-x="500" 
d="M308 -70l-64 -150h-63l72 150h55z" />
    <glyph glyph-name="onesuperior" unicode="&#xb9;" horiz-adv-x="249" 
d="M169 285h-44v378l-80 -71v51l80 69h44v-427z" />
    <glyph glyph-name="ordmasculine" unicode="&#xba;" horiz-adv-x="452" 
d="M380 519q0 -106 -48 -154q-42 -42 -106 -42t-106 42q-48 48 -48 154t48 154q42 42 106 42t106 -42q48 -48 48 -154zM337 519q0 92 -33 125q-32 32 -78 32t-78 -32q-33 -33 -33 -125t33 -125q32 -32 78 -32t78 32q33 33 33 125z" />
    <glyph glyph-name="guillemotright" unicode="&#xbb;" horiz-adv-x="527" 
d="M485 265l-196 -196v66l130 130l-130 130v66zM278 265l-196 -196v66l130 130l-130 130v66z" />
    <glyph glyph-name="onequarter" unicode="&#xbc;" horiz-adv-x="756" 
d="M716 67h-52v-67h-44v67h-170v40l154 320h47l-153 -320h122v120h44v-120h52v-40zM545 712l-332 -712h-45l332 712h45zM169 285h-44v378l-80 -71v51l80 69h44v-427z" />
    <glyph glyph-name="onehalf" unicode="&#xbd;" horiz-adv-x="764" 
d="M714 0h-236v40l168 213q23 30 23 62q0 35 -19.5 55.5t-53.5 20.5q-32 0 -53 -18.5t-21 -57.5h-44q0 51 32 83.5t86 32.5q53 0 85.5 -31.5t32.5 -84.5q0 -43 -34 -87l-149 -188h183v-40zM530 712l-332 -712h-45l332 712h45zM169 285h-44v378l-80 -71v51l80 69h44v-427z
" />
    <glyph glyph-name="threequarters" unicode="&#xbe;" horiz-adv-x="806" 
d="M766 67h-52v-67h-44v67h-170v40l154 320h47l-153 -320h122v120h44v-120h52v-40zM605 712l-332 -712h-45l332 712h45zM302 402q0 -57 -35 -89.5t-90 -32.5q-54 0 -89.5 29t-37.5 85h45q2 -37 25 -55.5t57 -18.5q35 0 58 22t23 60q0 81 -84 81h-8v39h8q76 0 76 77
q0 37 -21 57t-53 20q-33 0 -53 -18.5t-23 -51.5h-44q4 51 37 80.5t83 29.5q53 0 85.5 -32t32.5 -84q0 -70 -57 -95q65 -24 65 -103z" />
    <glyph glyph-name="questiondown" unicode="&#xbf;" horiz-adv-x="488" 
d="M256 415h-67v67h67v-67zM408 -60q0 -73 -50.5 -124.5t-128.5 -51.5q-76 0 -127.5 50.5t-51.5 125.5q0 55 44 119l85 125q18 26 18 60v47h51v-45q0 -48 -29 -90l-84 -124q-34 -51 -34 -92q0 -56 36.5 -93.5t91.5 -37.5q57 0 92.5 38.5t35.5 92.5h51z" />
    <glyph glyph-name="Agrave" unicode="&#xc0;" horiz-adv-x="602" 
d="M587 0h-58l-62 173h-332l-62 -173h-58l262 712h48zM450 221l-149 419l-149 -419h298zM348 780h-58l-106 147h67z" />
    <glyph glyph-name="Aacute" unicode="&#xc1;" horiz-adv-x="602" 
d="M587 0h-58l-62 173h-332l-62 -173h-58l262 712h48zM450 221l-149 419l-149 -419h298zM418 927l-106 -147h-58l97 147h67z" />
    <glyph glyph-name="Acircumflex" unicode="&#xc2;" horiz-adv-x="602" 
d="M587 0h-58l-62 173h-332l-62 -173h-58l262 712h48zM450 221l-149 419l-149 -419h298zM451 780h-57l-93 109l-93 -109h-57l123 147h54z" />
    <glyph glyph-name="Atilde" unicode="&#xc3;" horiz-adv-x="602" 
d="M587 0h-58l-62 173h-332l-62 -173h-58l262 712h48zM450 221l-149 419l-149 -419h298zM450 843q-48 -48 -89 -48q-28 0 -69 24q-36 21 -56 21q-26 0 -59 -33l-30 29q48 48 89 48q31 0 69 -24q34 -21 56 -21q26 0 59 33z" />
    <glyph glyph-name="Adieresis" unicode="&#xc4;" horiz-adv-x="602" 
d="M587 0h-58l-62 173h-332l-62 -173h-58l262 712h48zM450 221l-149 419l-149 -419h298zM434 790h-58v77h58v-77zM226 790h-58v77h58v-77z" />
    <glyph glyph-name="Aring" unicode="&#xc5;" horiz-adv-x="602" 
d="M587 0h-58l-62 173h-332l-62 -173h-58l262 712h48zM450 221l-149 419l-149 -419h298zM415 861q0 -47 -33.5 -81t-80.5 -34t-80.5 34t-33.5 81t33.5 80.5t80.5 33.5t80.5 -33.5t33.5 -80.5zM374 861q0 30 -21.5 51t-51.5 21t-51.5 -21t-21.5 -51t21.5 -51.5t51.5 -21.5
t51.5 21.5t21.5 51.5z" />
    <glyph glyph-name="AE" unicode="&#xc6;" horiz-adv-x="901" 
d="M845 0h-431v173h-255l-90 -173h-59l377 712h458v-48h-378v-284h322v-48h-322v-284h378v-48zM414 221v443l-232 -443h232z" />
    <glyph glyph-name="Ccedilla" unicode="&#xc7;" horiz-adv-x="644" 
d="M568 202q-17 -96 -82.5 -152t-159.5 -56q-105 0 -178 73q-45 45 -55.5 99.5t-10.5 189.5t10.5 189.5t55.5 99.5q73 73 178 73q95 0 160 -55.5t82 -152.5h-55q-16 74 -65.5 117t-121.5 43q-80 0 -135 -55q-36 -36 -45.5 -86t-9.5 -173t9.5 -173t45.5 -86q55 -55 135 -55
q72 0 122.5 43t66.5 117h53zM366 -70l-64 -150h-63l72 150h55z" />
    <glyph glyph-name="Egrave" unicode="&#xc8;" horiz-adv-x="598" 
d="M542 0h-432v712h432v-48h-378v-281h322v-48h-322v-287h378v-48zM361 780h-58l-106 147h67z" />
    <glyph glyph-name="Eacute" unicode="&#xc9;" horiz-adv-x="598" 
d="M542 0h-432v712h432v-48h-378v-281h322v-48h-322v-287h378v-48zM431 927l-106 -147h-58l97 147h67z" />
    <glyph glyph-name="Ecircumflex" unicode="&#xca;" horiz-adv-x="598" 
d="M542 0h-432v712h432v-48h-378v-281h322v-48h-322v-287h378v-48zM464 780h-57l-93 109l-93 -109h-57l123 147h54z" />
    <glyph glyph-name="Edieresis" unicode="&#xcb;" horiz-adv-x="598" 
d="M542 0h-432v712h432v-48h-378v-281h322v-48h-322v-287h378v-48zM447 790h-58v77h58v-77zM239 790h-58v77h58v-77z" />
    <glyph glyph-name="Igrave" unicode="&#xcc;" horiz-adv-x="274" 
d="M164 0h-54v712h54v-712zM274 780h-58l-106 147h67z" />
    <glyph glyph-name="Iacute" unicode="&#xcd;" horiz-adv-x="274" 
d="M164 0h-54v712h54v-712zM274 927l-106 -147h-58l97 147h67z" />
    <glyph glyph-name="Icircumflex" unicode="&#xce;" horiz-adv-x="274" 
d="M164 0h-54v712h54v-712zM410 780h-57l-93 109l-93 -109h-57l123 147h54z" />
    <glyph glyph-name="Idieresis" unicode="&#xcf;" horiz-adv-x="274" 
d="M164 0h-54v712h54v-712zM376 790h-58v77h58v-77zM168 790h-58v77h58v-77z" />
    <glyph glyph-name="Eth" unicode="&#xd0;" horiz-adv-x="689" 
d="M607 356q0 -124 -7.5 -165t-30.5 -78q-72 -113 -215 -113h-233v338h-81v42h81v332h240q141 0 208 -115q25 -44 31.5 -82.5t6.5 -158.5zM553 351q0 112 -6 155t-34 80q-59 79 -166 79h-172v-285h178v-42h-178v-291h172q118 0 172 81q24 35 29 72.5t5 150.5z" />
    <glyph glyph-name="Ntilde" unicode="&#xd1;" horiz-adv-x="739" 
d="M629 0h-54l-411 619v-619h-54v712h54l411 -617v617h54v-712zM519 843q-48 -48 -89 -48q-28 0 -69 24q-36 21 -56 21q-26 0 -59 -33l-30 29q48 48 89 48q31 0 69 -24q34 -21 56 -21q26 0 59 33z" />
    <glyph glyph-name="Ograve" unicode="&#xd2;" horiz-adv-x="652" 
d="M570 356q0 -135 -10.5 -189.5t-55.5 -99.5q-73 -73 -178 -73t-178 73q-45 45 -55.5 99.5t-10.5 189.5t10.5 189.5t55.5 99.5q73 73 178 73t178 -73q45 -45 55.5 -99.5t10.5 -189.5zM516 356q0 123 -9.5 173t-45.5 86q-55 55 -135 55t-135 -55q-36 -36 -45.5 -86
t-9.5 -173t9.5 -173t45.5 -86q55 -55 135 -55t135 55q36 36 45.5 86t9.5 173zM373 780h-58l-106 147h67z" />
    <glyph glyph-name="Oacute" unicode="&#xd3;" horiz-adv-x="652" 
d="M570 356q0 -135 -10.5 -189.5t-55.5 -99.5q-73 -73 -178 -73t-178 73q-45 45 -55.5 99.5t-10.5 189.5t10.5 189.5t55.5 99.5q73 73 178 73t178 -73q45 -45 55.5 -99.5t10.5 -189.5zM516 356q0 123 -9.5 173t-45.5 86q-55 55 -135 55t-135 -55q-36 -36 -45.5 -86
t-9.5 -173t9.5 -173t45.5 -86q55 -55 135 -55t135 55q36 36 45.5 86t9.5 173zM443 927l-106 -147h-58l97 147h67z" />
    <glyph glyph-name="Ocircumflex" unicode="&#xd4;" horiz-adv-x="652" 
d="M570 356q0 -135 -10.5 -189.5t-55.5 -99.5q-73 -73 -178 -73t-178 73q-45 45 -55.5 99.5t-10.5 189.5t10.5 189.5t55.5 99.5q73 73 178 73t178 -73q45 -45 55.5 -99.5t10.5 -189.5zM516 356q0 123 -9.5 173t-45.5 86q-55 55 -135 55t-135 -55q-36 -36 -45.5 -86
t-9.5 -173t9.5 -173t45.5 -86q55 -55 135 -55t135 55q36 36 45.5 86t9.5 173zM476 780h-57l-93 109l-93 -109h-57l123 147h54z" />
    <glyph glyph-name="Otilde" unicode="&#xd5;" horiz-adv-x="652" 
d="M570 356q0 -135 -10.5 -189.5t-55.5 -99.5q-73 -73 -178 -73t-178 73q-45 45 -55.5 99.5t-10.5 189.5t10.5 189.5t55.5 99.5q73 73 178 73t178 -73q45 -45 55.5 -99.5t10.5 -189.5zM516 356q0 123 -9.5 173t-45.5 86q-55 55 -135 55t-135 -55q-36 -36 -45.5 -86
t-9.5 -173t9.5 -173t45.5 -86q55 -55 135 -55t135 55q36 36 45.5 86t9.5 173zM475 843q-48 -48 -89 -48q-28 0 -69 24q-36 21 -56 21q-26 0 -59 -33l-30 29q48 48 89 48q31 0 69 -24q34 -21 56 -21q26 0 59 33z" />
    <glyph glyph-name="Odieresis" unicode="&#xd6;" horiz-adv-x="652" 
d="M570 356q0 -135 -10.5 -189.5t-55.5 -99.5q-73 -73 -178 -73t-178 73q-45 45 -55.5 99.5t-10.5 189.5t10.5 189.5t55.5 99.5q73 73 178 73t178 -73q45 -45 55.5 -99.5t10.5 -189.5zM516 356q0 123 -9.5 173t-45.5 86q-55 55 -135 55t-135 -55q-36 -36 -45.5 -86
t-9.5 -173t9.5 -173t45.5 -86q55 -55 135 -55t135 55q36 36 45.5 86t9.5 173zM459 790h-58v77h58v-77zM251 790h-58v77h58v-77z" />
    <glyph glyph-name="multiply" unicode="&#xd7;" 
d="M443 109l-31 -31l-155 155l-155 -155l-31 31l155 155l-155 155l31 31l155 -155l155 155l31 -31l-155 -155z" />
    <glyph glyph-name="Oslash" unicode="&#xd8;" horiz-adv-x="652" 
d="M570 356q0 -135 -10.5 -189.5t-55.5 -99.5q-73 -73 -178 -73q-71 0 -130 35l-35 -73h-53l49 102l-9 9q-45 45 -55.5 99.5t-10.5 189.5t10.5 189.5t55.5 99.5q73 73 178 73q71 0 130 -35l35 73h53l-49 -102l9 -9q45 -45 55.5 -99.5t10.5 -189.5zM516 356q0 116 -7.5 164.5
t-37.5 83.5l-253 -529q46 -33 108 -33q80 0 135 55q36 36 45.5 86t9.5 173zM434 637q-46 33 -108 33q-80 0 -135 -55q-36 -36 -45.5 -86t-9.5 -173q0 -116 7.5 -164.5t37.5 -83.5z" />
    <glyph glyph-name="Ugrave" unicode="&#xd9;" horiz-adv-x="687" 
d="M588 231q0 -104 -68.5 -170.5t-175.5 -66.5t-175.5 66.5t-68.5 170.5v481h54v-474q0 -88 52 -142t138 -54t138 54t52 142v474h54v-481zM391 780h-58l-106 147h67z" />
    <glyph glyph-name="Uacute" unicode="&#xda;" horiz-adv-x="687" 
d="M588 231q0 -104 -68.5 -170.5t-175.5 -66.5t-175.5 66.5t-68.5 170.5v481h54v-474q0 -88 52 -142t138 -54t138 54t52 142v474h54v-481zM461 927l-106 -147h-58l97 147h67z" />
    <glyph glyph-name="Ucircumflex" unicode="&#xdb;" horiz-adv-x="687" 
d="M588 231q0 -104 -68.5 -170.5t-175.5 -66.5t-175.5 66.5t-68.5 170.5v481h54v-474q0 -88 52 -142t138 -54t138 54t52 142v474h54v-481zM494 780h-57l-93 109l-93 -109h-57l123 147h54z" />
    <glyph glyph-name="Udieresis" unicode="&#xdc;" horiz-adv-x="687" 
d="M588 231q0 -104 -68.5 -170.5t-175.5 -66.5t-175.5 66.5t-68.5 170.5v481h54v-474q0 -88 52 -142t138 -54t138 54t52 142v474h54v-481zM477 790h-58v77h58v-77zM269 790h-58v77h58v-77z" />
    <glyph glyph-name="Yacute" unicode="&#xdd;" horiz-adv-x="494" 
d="M484 712l-210 -417v-295h-54v295l-210 417h58l181 -360l177 360h58zM364 927l-106 -147h-58l97 147h67z" />
    <glyph glyph-name="Thorn" unicode="&#xde;" horiz-adv-x="646" 
d="M586 359q0 -95 -60 -150t-155 -55h-207v-154h-54v712h54v-148h207q95 0 155 -55t60 -150zM532 359q0 78 -45.5 117.5t-121.5 39.5h-201v-314h201q76 0 121.5 39.5t45.5 117.5z" />
    <glyph glyph-name="germandbls" unicode="&#xdf;" horiz-adv-x="550" 
d="M473 134q0 -64 -39 -100q-38 -34 -95 -34h-54v45h44q37 0 65 22t28 73v179q0 46 -23 68q-23 23 -65 23h-49v45h39q44 0 71 28t27 74q0 53 -35 85q-33 32 -104 32q-69 0 -102 -40t-33 -109v-525h-51v525q0 90 51 142t141 52q80 0 131.5 -41t51.5 -121t-63 -122
q38 -20 51 -47t13 -77v-177z" />
    <glyph glyph-name="agrave" unicode="&#xe0;" horiz-adv-x="524" 
d="M431 0h-51v48q-30 -30 -62.5 -42t-84.5 -12q-99 0 -142 44q-35 37 -35 94q0 66 44.5 102.5t123.5 36.5h156v54q0 59 -32 88.5t-104 29.5q-51 0 -80.5 -14t-52.5 -47l-37 32q30 41 69.5 57.5t100.5 16.5q187 0 187 -158v-330zM380 168v62h-150q-123 0 -123 -97
q0 -48 30.5 -71t95.5 -23q82 0 120 37q27 26 27 92zM296 590h-58l-106 147h67z" />
    <glyph glyph-name="aacute" unicode="&#xe1;" horiz-adv-x="524" 
d="M431 0h-51v48q-30 -30 -62.5 -42t-84.5 -12q-99 0 -142 44q-35 37 -35 94q0 66 44.5 102.5t123.5 36.5h156v54q0 59 -32 88.5t-104 29.5q-51 0 -80.5 -14t-52.5 -47l-37 32q30 41 69.5 57.5t100.5 16.5q187 0 187 -158v-330zM380 168v62h-150q-123 0 -123 -97
q0 -48 30.5 -71t95.5 -23q82 0 120 37q27 26 27 92zM366 737l-106 -147h-58l97 147h67z" />
    <glyph glyph-name="acircumflex" unicode="&#xe2;" horiz-adv-x="524" 
d="M431 0h-51v48q-30 -30 -62.5 -42t-84.5 -12q-99 0 -142 44q-35 37 -35 94q0 66 44.5 102.5t123.5 36.5h156v54q0 59 -32 88.5t-104 29.5q-51 0 -80.5 -14t-52.5 -47l-37 32q30 41 69.5 57.5t100.5 16.5q187 0 187 -158v-330zM380 168v62h-150q-123 0 -123 -97
q0 -48 30.5 -71t95.5 -23q82 0 120 37q27 26 27 92zM399 590h-57l-93 109l-93 -109h-57l123 147h54z" />
    <glyph glyph-name="atilde" unicode="&#xe3;" horiz-adv-x="524" 
d="M431 0h-51v48q-30 -30 -62.5 -42t-84.5 -12q-99 0 -142 44q-35 37 -35 94q0 66 44.5 102.5t123.5 36.5h156v54q0 59 -32 88.5t-104 29.5q-51 0 -80.5 -14t-52.5 -47l-37 32q30 41 69.5 57.5t100.5 16.5q187 0 187 -158v-330zM380 168v62h-150q-123 0 -123 -97
q0 -48 30.5 -71t95.5 -23q82 0 120 37q27 26 27 92zM398 653q-48 -48 -89 -48q-28 0 -69 24q-36 21 -56 21q-26 0 -59 -33l-30 29q48 48 89 48q31 0 69 -24q34 -21 56 -21q26 0 59 33z" />
    <glyph glyph-name="adieresis" unicode="&#xe4;" horiz-adv-x="524" 
d="M431 0h-51v48q-30 -30 -62.5 -42t-84.5 -12q-99 0 -142 44q-35 37 -35 94q0 66 44.5 102.5t123.5 36.5h156v54q0 59 -32 88.5t-104 29.5q-51 0 -80.5 -14t-52.5 -47l-37 32q30 41 69.5 57.5t100.5 16.5q187 0 187 -158v-330zM380 168v62h-150q-123 0 -123 -97
q0 -48 30.5 -71t95.5 -23q82 0 120 37q27 26 27 92zM382 600h-58v77h58v-77zM174 600h-58v77h58v-77z" />
    <glyph glyph-name="aring" unicode="&#xe5;" horiz-adv-x="524" 
d="M431 0h-51v48q-30 -30 -62.5 -42t-84.5 -12q-99 0 -142 44q-35 37 -35 94q0 66 44.5 102.5t123.5 36.5h156v54q0 59 -32 88.5t-104 29.5q-51 0 -80.5 -14t-52.5 -47l-37 32q30 41 69.5 57.5t100.5 16.5q187 0 187 -158v-330zM380 168v62h-150q-123 0 -123 -97
q0 -48 30.5 -71t95.5 -23q82 0 120 37q27 26 27 92zM363 677q0 -47 -33.5 -81t-80.5 -34t-80.5 34t-33.5 81t33.5 80.5t80.5 33.5t80.5 -33.5t33.5 -80.5zM322 677q0 30 -21.5 51t-51.5 21t-51.5 -21t-21.5 -51t21.5 -51.5t51.5 -21.5t51.5 21.5t21.5 51.5z" />
    <glyph glyph-name="ae" unicode="&#xe6;" horiz-adv-x="834" 
d="M766 230h-335q0 -92 40.5 -141t116.5 -49q42 0 72 13.5t61 44.5l38 -30q-39 -39 -78 -56.5t-97 -17.5q-122 0 -172 90q-30 -49 -71 -69.5t-108 -20.5q-99 0 -142 44q-35 37 -35 94q0 66 44.5 102.5t123.5 36.5h156v54q0 59 -32 88.5t-104 29.5q-51 0 -80.5 -14t-52.5 -47
l-37 32q30 41 69.5 57.5t100.5 16.5q136 0 173 -85q51 85 156 85q90 0 141.5 -62.5t51.5 -172.5v-23zM715 271q-2 54 -17 91q-16 37 -50 59t-75 22t-75 -22t-50 -59q-15 -37 -17 -91h284zM380 168v62h-150q-123 0 -123 -97q0 -48 30.5 -71t95.5 -23q82 0 120 37q27 26 27 92
z" />
    <glyph glyph-name="ccedilla" unicode="&#xe7;" horiz-adv-x="498" 
d="M440 68q-38 -42 -73.5 -58t-85.5 -16q-98 0 -155 66t-57 181t57 181t155 66q50 0 85.5 -16t73.5 -58l-35 -32q-31 34 -58 47.5t-66 13.5q-84 0 -128 -64q-33 -48 -33 -138t33 -138q44 -64 128 -64q39 0 66 13.5t58 47.5zM308 -70l-64 -150h-63l72 150h55z" />
    <glyph glyph-name="egrave" unicode="&#xe8;" horiz-adv-x="523" 
d="M455 230h-335q0 -92 40.5 -141t116.5 -49q42 0 72 13.5t61 44.5l38 -30q-39 -39 -78 -56.5t-96 -17.5q-100 0 -152.5 63t-52.5 184q0 116 51 181.5t142 65.5q90 0 141.5 -62.5t51.5 -172.5v-23zM404 271q-2 54 -17 91q-16 37 -50 59t-75 22t-75 -22t-50 -59
q-15 -37 -17 -91h284zM311 590h-58l-106 147h67z" />
    <glyph glyph-name="eacute" unicode="&#xe9;" horiz-adv-x="523" 
d="M455 230h-335q0 -92 40.5 -141t116.5 -49q42 0 72 13.5t61 44.5l38 -30q-39 -39 -78 -56.5t-96 -17.5q-100 0 -152.5 63t-52.5 184q0 116 51 181.5t142 65.5q90 0 141.5 -62.5t51.5 -172.5v-23zM404 271q-2 54 -17 91q-16 37 -50 59t-75 22t-75 -22t-50 -59
q-15 -37 -17 -91h284zM381 737l-106 -147h-58l97 147h67z" />
    <glyph glyph-name="ecircumflex" unicode="&#xea;" horiz-adv-x="523" 
d="M455 230h-335q0 -92 40.5 -141t116.5 -49q42 0 72 13.5t61 44.5l38 -30q-39 -39 -78 -56.5t-96 -17.5q-100 0 -152.5 63t-52.5 184q0 116 51 181.5t142 65.5q90 0 141.5 -62.5t51.5 -172.5v-23zM404 271q-2 54 -17 91q-16 37 -50 59t-75 22t-75 -22t-50 -59
q-15 -37 -17 -91h284zM414 590h-57l-93 109l-93 -109h-57l123 147h54z" />
    <glyph glyph-name="edieresis" unicode="&#xeb;" horiz-adv-x="523" 
d="M455 230h-335q0 -92 40.5 -141t116.5 -49q42 0 72 13.5t61 44.5l38 -30q-39 -39 -78 -56.5t-96 -17.5q-100 0 -152.5 63t-52.5 184q0 116 51 181.5t142 65.5q90 0 141.5 -62.5t51.5 -172.5v-23zM404 271q-2 54 -17 91q-16 37 -50 59t-75 22t-75 -22t-50 -59
q-15 -37 -17 -91h284zM397 600h-58v77h58v-77zM189 600h-58v77h58v-77z" />
    <glyph glyph-name="igrave" unicode="&#xec;" horiz-adv-x="245" 
d="M148 0h-51v482h51v-482zM261 590h-58l-106 147h67z" />
    <glyph glyph-name="iacute" unicode="&#xed;" horiz-adv-x="245" 
d="M148 0h-51v482h51v-482zM261 737l-106 -147h-58l97 147h67z" />
    <glyph glyph-name="icircumflex" unicode="&#xee;" horiz-adv-x="245" 
d="M148 0h-51v482h51v-482zM397 590h-57l-93 109l-93 -109h-57l123 147h54z" />
    <glyph glyph-name="idieresis" unicode="&#xef;" horiz-adv-x="245" 
d="M148 0h-51v482h51v-482zM363 600h-58v77h58v-77zM155 600h-58v77h58v-77z" />
    <glyph glyph-name="eth" unicode="&#xf0;" horiz-adv-x="526" 
d="M457 241q0 -134 -60 -194q-53 -53 -134 -53t-134 53q-60 60 -60 194t60 194q53 53 134 53q47 0 75 -17l-67 113h-117v38h95l-53 90h53l52 -90h79v-38h-57l72 -123q39 -67 50.5 -110.5t11.5 -109.5zM406 241q0 118 -43 161q-41 41 -100 41t-100 -41q-43 -43 -43 -161
t43 -161q41 -41 100 -41t100 41q43 43 43 161z" />
    <glyph glyph-name="ntilde" unicode="&#xf1;" horiz-adv-x="559" 
d="M468 0h-51v299q0 70 -34.5 107t-98.5 37t-100 -38t-36 -106v-299h-51v482h51v-57q54 63 142 63q80 0 128 -46q50 -48 50 -134v-308zM433 653q-48 -48 -89 -48q-28 0 -69 24q-36 21 -56 21q-26 0 -59 -33l-30 29q48 48 89 48q31 0 69 -24q34 -21 56 -21q26 0 59 33z" />
    <glyph glyph-name="ograve" unicode="&#xf2;" horiz-adv-x="526" 
d="M297 590h-58l-106 147h67zM521 241q0 -134 -60 -194q-53 -53 -134 -53t-134 53q-60 60 -60 194t60 194q53 53 134 53t134 -53q60 -60 60 -194zM470 241q0 118 -43 161q-41 41 -100 41t-100 -41q-43 -43 -43 -161t43 -161q41 -41 100 -41t100 41q43 43 43 161z" />
    <glyph glyph-name="oacute" unicode="&#xf3;" horiz-adv-x="526" 
d="M457 241q0 -134 -60 -194q-53 -53 -134 -53t-134 53q-60 60 -60 194t60 194q53 53 134 53t134 -53q60 -60 60 -194zM406 241q0 118 -43 161q-41 41 -100 41t-100 -41q-43 -43 -43 -161t43 -161q41 -41 100 -41t100 41q43 43 43 161zM380 737l-106 -147h-58l97 147h67z
" />
    <glyph glyph-name="ocircumflex" unicode="&#xf4;" horiz-adv-x="526" 
d="M457 241q0 -134 -60 -194q-53 -53 -134 -53t-134 53q-60 60 -60 194t60 194q53 53 134 53t134 -53q60 -60 60 -194zM406 241q0 118 -43 161q-41 41 -100 41t-100 -41q-43 -43 -43 -161t43 -161q41 -41 100 -41t100 41q43 43 43 161zM413 590h-57l-93 109l-93 -109h-57
l123 147h54z" />
    <glyph glyph-name="otilde" unicode="&#xf5;" horiz-adv-x="526" 
d="M457 241q0 -134 -60 -194q-53 -53 -134 -53t-134 53q-60 60 -60 194t60 194q53 53 134 53t134 -53q60 -60 60 -194zM406 241q0 118 -43 161q-41 41 -100 41t-100 -41q-43 -43 -43 -161t43 -161q41 -41 100 -41t100 41q43 43 43 161zM412 653q-48 -48 -89 -48
q-28 0 -69 24q-36 21 -56 21q-26 0 -59 -33l-30 29q48 48 89 48q31 0 69 -24q34 -21 56 -21q26 0 59 33z" />
    <glyph glyph-name="odieresis" unicode="&#xf6;" horiz-adv-x="526" 
d="M457 241q0 -134 -60 -194q-53 -53 -134 -53t-134 53q-60 60 -60 194t60 194q53 53 134 53t134 -53q60 -60 60 -194zM406 241q0 118 -43 161q-41 41 -100 41t-100 -41q-43 -43 -43 -161t43 -161q41 -41 100 -41t100 41q43 43 43 161zM396 600h-58v77h58v-77zM188 600h-58
v77h58v-77z" />
    <glyph glyph-name="divide" unicode="&#xf7;" 
d="M292 397h-70v70h70v-70zM461 240h-408v47h408v-47zM292 60h-70v70h70v-70z" />
    <glyph glyph-name="oslash" unicode="&#xf8;" horiz-adv-x="526" 
d="M457 241q0 -134 -60 -194q-53 -53 -134 -53q-59 0 -105 29l-40 -67h-48l56 94q-57 61 -57 191q0 134 60 194q53 53 134 53q60 0 105 -30l40 68h48l-56 -94q57 -61 57 -191zM406 241q0 104 -32 148l-192 -325q36 -25 81 -25q59 0 100 41q43 43 43 161zM344 418
q-36 25 -81 25q-59 0 -100 -41q-43 -43 -43 -161q0 -104 32 -148z" />
    <glyph glyph-name="ugrave" unicode="&#xf9;" horiz-adv-x="559" 
d="M462 0h-51v57q-54 -63 -142 -63q-80 0 -128 46q-50 48 -50 134v308h51v-299q0 -70 34.5 -107t98.5 -37t100 38t36 106v299h51v-482zM323 590h-58l-106 147h67z" />
    <glyph glyph-name="uacute" unicode="&#xfa;" horiz-adv-x="559" 
d="M462 0h-51v57q-54 -63 -142 -63q-80 0 -128 46q-50 48 -50 134v308h51v-299q0 -70 34.5 -107t98.5 -37t100 38t36 106v299h51v-482zM393 737l-106 -147h-58l97 147h67z" />
    <glyph glyph-name="ucircumflex" unicode="&#xfb;" horiz-adv-x="559" 
d="M462 0h-51v57q-54 -63 -142 -63q-80 0 -128 46q-50 48 -50 134v308h51v-299q0 -70 34.5 -107t98.5 -37t100 38t36 106v299h51v-482zM426 590h-57l-93 109l-93 -109h-57l123 147h54z" />
    <glyph glyph-name="udieresis" unicode="&#xfc;" horiz-adv-x="559" 
d="M462 0h-51v57q-54 -63 -142 -63q-80 0 -128 46q-50 48 -50 134v308h51v-299q0 -70 34.5 -107t98.5 -37t100 38t36 106v299h51v-482zM409 600h-58v77h58v-77zM201 600h-58v77h58v-77z" />
    <glyph glyph-name="yacute" unicode="&#xfd;" horiz-adv-x="430" 
d="M416 482l-224 -613q-14 -39 -33 -56q-32 -31 -91 -31h-24v45h19q39 0 56.5 14t31.5 52l39 107l-176 482h56l145 -422l145 422h56zM332 737l-106 -147h-58l97 147h67z" />
    <glyph glyph-name="thorn" unicode="&#xfe;" horiz-adv-x="540" 
d="M471 241q0 -143 -62 -205q-42 -42 -118 -42q-92 0 -143 68v-292h-51v942h51v-292q51 68 143 68q76 0 118 -42q62 -62 62 -205zM420 241q0 43 -5 75t-18.5 63t-42 47.5t-70.5 16.5t-70.5 -16.5t-42 -47.5t-18.5 -63t-5 -75t5 -75t18.5 -63t42 -47.5t70.5 -16.5t70.5 16.5
t42 47.5t18.5 63t5 75z" />
    <glyph glyph-name="ydieresis" unicode="&#xff;" horiz-adv-x="430" 
d="M416 482l-224 -613q-14 -39 -33 -56q-32 -31 -91 -31h-24v45h19q39 0 56.5 14t31.5 52l39 107l-176 482h56l145 -422l145 422h56zM348 600h-58v77h58v-77zM140 600h-58v77h58v-77z" />
    <glyph glyph-name="dotlessi" unicode="&#x131;" horiz-adv-x="245" 
d="M148 0h-51v482h51v-482z" />
    <glyph glyph-name="Lslash" unicode="&#x141;" horiz-adv-x="578" 
d="M548 0h-432v306l-76 -48v48l76 48v358h54v-324l164 104v-48l-164 -104v-292h378v-48z" />
    <glyph glyph-name="lslash" unicode="&#x142;" horiz-adv-x="308" 
d="M266 0h-44q-57 0 -86.5 33.5t-29.5 91.5v231l-66 -41v45l66 41v311h51v-279l88 55v-45l-88 -55v-262q0 -42 16.5 -61.5t57.5 -19.5h35v-45z" />
    <glyph glyph-name="OE" unicode="&#x152;" horiz-adv-x="997" 
d="M941 0h-425v85q-73 -91 -190 -91q-105 0 -178 73q-45 45 -55.5 99.5t-10.5 189.5t10.5 189.5t55.5 99.5q73 73 178 73q117 0 190 -91v85h422v-47h-369q0 -48 0.5 -143t0.5 -142h313v-42h-313q0 -48 -0.5 -145t-0.5 -146h372v-47zM516 356q0 123 -9.5 173t-45.5 86
q-55 55 -135 55t-135 -55q-36 -36 -45.5 -86t-9.5 -173t9.5 -173t45.5 -86q55 -55 135 -55t135 55q36 36 45.5 86t9.5 173z" />
    <glyph glyph-name="oe" unicode="&#x153;" horiz-adv-x="860" 
d="M792 230h-335q0 -92 40.5 -141t116.5 -49q42 0 72 13.5t61 44.5l38 -30q-39 -39 -78 -56.5t-96 -17.5q-129 0 -178 105q-23 -50 -68.5 -77.5t-101.5 -27.5q-81 0 -134 53q-60 60 -60 194t60 194q53 53 134 53q57 0 102 -27.5t68 -77.5q49 105 166 105q90 0 141.5 -62.5
t51.5 -172.5v-23zM741 271q-2 54 -17 91q-16 37 -50 59t-75 22t-75 -22t-50 -59q-15 -37 -17 -91h284zM406 241q0 118 -43 161q-41 41 -100 41t-100 -41q-43 -43 -43 -161t43 -161q41 -41 100 -41t100 41q43 43 43 161z" />
    <glyph glyph-name="Scaron" unicode="&#x160;" horiz-adv-x="587" 
d="M528 191q0 -90 -64.5 -143.5t-175.5 -53.5q-78 0 -132.5 22t-104.5 72l38 38q47 -47 92 -65.5t110 -18.5q85 0 134 39t49 108q0 65 -39 100q-19 16 -39 23.5t-64 14.5l-83 13q-81 12 -127 52q-56 47 -56 131q0 89 59.5 142t161.5 53q64 0 111 -18t94 -59l-35 -35
q-37 33 -75.5 49.5t-97.5 16.5q-77 0 -121 -39.5t-44 -107.5q0 -62 37 -93q41 -34 106 -44l77 -12q86 -13 127 -47q62 -51 62 -138zM437 927l-123 -147h-54l-123 147h57l93 -109l93 109h57z" />
    <glyph glyph-name="scaron" unicode="&#x161;" horiz-adv-x="494" 
d="M438 137q0 -66 -52 -104.5t-141 -38.5q-123 0 -195 69l35 35q56 -59 158 -59q145 0 145 98q0 37 -22.5 56.5t-69.5 24.5l-80 7q-145 12 -145 126q0 62 47 99.5t126 37.5q102 0 169 -51l-34 -34q-56 41 -135 41q-59 0 -91 -24.5t-32 -68.5q0 -38 23.5 -57.5t74.5 -23.5
l78 -7q68 -6 104.5 -33.5t36.5 -92.5zM394 737l-123 -147h-54l-123 147h57l93 -109l93 109h57z" />
    <glyph glyph-name="Ydieresis" unicode="&#x178;" horiz-adv-x="494" 
d="M484 712l-210 -417v-295h-54v295l-210 417h58l181 -360l177 360h58zM380 790h-58v77h58v-77zM172 790h-58v77h58v-77z" />
    <glyph glyph-name="Zcaron" unicode="&#x17d;" horiz-adv-x="559" 
d="M496 0h-433v57l375 607h-360v48h418v-48l-378 -616h378v-48zM437 927l-123 -147h-54l-123 147h57l93 -109l93 109h57z" />
    <glyph glyph-name="zcaron" unicode="&#x17e;" horiz-adv-x="452" 
d="M398 0h-344v48l290 389h-274v45h328v-48l-291 -389h291v-45zM384 737l-123 -147h-54l-123 147h57l93 -109l93 109h57z" />
    <glyph glyph-name="florin" unicode="&#x192;" horiz-adv-x="394" 
d="M364 667h-43q-74 0 -88 -80l-36 -207h109v-38h-116l-101 -572h-51l101 572h-109v38h116l36 206q10 57 46.5 91.5t91.5 34.5h44v-45z" />
    <glyph glyph-name="circumflex" unicode="&#x2c6;" horiz-adv-x="500" 
d="M400 590h-57l-93 109l-93 -109h-57l123 147h54z" />
    <glyph glyph-name="caron" unicode="&#x2c7;" horiz-adv-x="500" 
d="M400 737l-123 -147h-54l-123 147h57l93 -109l93 109h57z" />
    <glyph glyph-name="breve" unicode="&#x2d8;" horiz-adv-x="500" 
d="M415 722q-14 -135 -163 -135q-153 0 -167 135h47q6 -42 37.5 -66t82.5 -24t82.5 24t37.5 66h43z" />
    <glyph glyph-name="dotaccent" unicode="&#x2d9;" horiz-adv-x="500" 
d="M281 643h-62v63h62v-63z" />
    <glyph glyph-name="ring" unicode="&#x2da;" horiz-adv-x="500" 
d="M364 677q0 -47 -33.5 -81t-80.5 -34t-80.5 34t-33.5 81t33.5 80.5t80.5 33.5t80.5 -33.5t33.5 -80.5zM323 677q0 30 -21.5 51t-51.5 21t-51.5 -21t-21.5 -51t21.5 -51.5t51.5 -21.5t51.5 21.5t21.5 51.5z" />
    <glyph glyph-name="ogonek" unicode="&#x2db;" horiz-adv-x="500" 
d="M319 -220h-63l-64 150h55z" />
    <glyph glyph-name="tilde" unicode="&#x2dc;" horiz-adv-x="500" 
d="M399 653q-48 -48 -89 -48q-28 0 -69 24q-36 21 -56 21q-26 0 -59 -33l-30 29q48 48 89 48q31 0 69 -24q34 -21 56 -21q26 0 59 33z" />
    <glyph glyph-name="hungarumlaut" unicode="&#x2dd;" horiz-adv-x="500" 
d="M441 737l-107 -147h-57l97 147h67zM294 737l-106 -147h-58l97 147h67z" />
    <glyph glyph-name="Delta" unicode="&#x394;" horiz-adv-x="591" 
d="M581 0h-571l262 712h47zM511 48l-216 592l-215 -592h431z" />
    <glyph glyph-name="Omega" unicode="&#x3a9;" horiz-adv-x="652" 
d="M570 0h-186v47q73 35 105 88q17 28 22 78t5 143q0 123 -9.5 173t-45.5 86q-55 55 -135 55t-135 -55q-36 -36 -45.5 -86t-9.5 -173q0 -93 5 -143t22 -78q32 -53 105 -88v-47h-186v47h91q-42 33 -62 71q-5 9 -8.5 19t-6.5 19.5t-5.5 23t-3.5 22t-2 25t-2 24.5t-1 26.5v25.5
v27v26q0 135 10.5 189.5t55.5 99.5q73 73 178 73t178 -73q45 -45 55.5 -99.5t10.5 -189.5v-26v-27v-25.5t-1 -26.5t-2 -24.5t-2 -25t-3.5 -22t-5.5 -23t-6.5 -19.5t-8.5 -19q-20 -38 -62 -71h91v-47z" />
    <glyph glyph-name="pi" unicode="&#x3c0;" horiz-adv-x="591" 
d="M481 0h-48v437h-275v-437h-48v482h371v-482z" />
    <glyph glyph-name="endash" unicode="&#x2013;" 
d="M461 240h-408v47h408v-47z" />
    <glyph glyph-name="emdash" unicode="&#x2014;" horiz-adv-x="873" 
d="M791 240h-709v47h709v-47z" />
    <glyph glyph-name="quoteleft" unicode="&#x2018;" horiz-adv-x="260" 
d="M165 642h-70v70l70 70v-140z" />
    <glyph glyph-name="quoteright" unicode="&#x2019;" horiz-adv-x="260" 
d="M165 642l-70 -70v140h70v-70z" />
    <glyph glyph-name="quotesinglbase" unicode="&#x201a;" horiz-adv-x="260" 
d="M165 0l-70 -70v140h70v-70z" />
    <glyph glyph-name="quotedblleft" unicode="&#x201c;" horiz-adv-x="416" 
d="M321 642h-70v70l70 70v-140zM165 642h-70v70l70 70v-140z" />
    <glyph glyph-name="quotedblright" unicode="&#x201d;" horiz-adv-x="416" 
d="M321 642l-70 -70v140h70v-70zM165 642l-70 -70v140h70v-70z" />
    <glyph glyph-name="quotedblbase" unicode="&#x201e;" horiz-adv-x="416" 
d="M321 0l-70 -70v140h70v-70zM165 0l-70 -70v140h70v-70z" />
    <glyph glyph-name="dagger" unicode="&#x2020;" horiz-adv-x="614" 
d="M534 457h-203v-457h-51v457h-200v45h200v210h51v-210h203v-45z" />
    <glyph glyph-name="daggerdbl" unicode="&#x2021;" horiz-adv-x="614" 
d="M534 -20h-203v-210h-51v210h-200v45h200v432h-200v45h200v210h51v-210h203v-45h-203v-432h203v-45z" />
    <glyph glyph-name="bullet" unicode="&#x2022;" horiz-adv-x="546" 
d="M436 334q0 -68 -48 -115.5t-115 -47.5t-115 47.5t-48 115.5t48 115.5t115 47.5t115 -47.5t48 -115.5z" />
    <glyph glyph-name="ellipsis" unicode="&#x2026;" horiz-adv-x="724" 
d="M629 0h-74v74h74v-74zM399 0h-74v74h74v-74zM169 0h-74v74h74v-74z" />
    <glyph glyph-name="perthousand" unicode="&#x2030;" horiz-adv-x="1168" 
d="M1099 127q0 -59 -36.5 -96.5t-94.5 -37.5t-95 37.5t-37 96.5v107q0 59 37 96.5t95 37.5t94.5 -37.5t36.5 -96.5v-107zM759 127q0 -59 -36.5 -96.5t-94.5 -37.5t-95 37.5t-37 96.5v107q0 59 37 96.5t95 37.5t94.5 -37.5t36.5 -96.5v-107zM603 712l-332 -712h-45l332 712
h45zM332 478q0 -59 -36.5 -96t-94.5 -37t-95 37t-37 96v107q0 59 37 96.5t95 37.5t94.5 -37.5t36.5 -96.5v-107zM1055 128v104q0 98 -87 98q-88 0 -88 -98v-103q0 -98 88 -98q87 0 87 97zM715 129v103q0 98 -87 98q-88 0 -88 -98v-103q0 -98 88 -98q87 0 87 98zM288 480v103
q0 98 -87 98q-88 0 -88 -98v-103q0 -97 88 -97q87 0 87 97z" />
    <glyph glyph-name="guilsinglleft" unicode="&#x2039;" horiz-adv-x="320" 
d="M238 69l-196 196l196 196v-66l-130 -130l130 -130v-66z" />
    <glyph glyph-name="guilsinglright" unicode="&#x203a;" horiz-adv-x="320" 
d="M278 265l-196 -196v66l130 130l-130 130v66z" />
    <glyph glyph-name="fraction" unicode="&#x2044;" horiz-adv-x="177" 
d="M277 712l-332 -712h-45l332 712h45z" />
    <glyph glyph-name="trademark" unicode="&#x2122;" horiz-adv-x="809" 
d="M753 285h-44v328l-110 -218h-46l-110 218v-328h-44v427h44l133 -270l133 270h44v-427zM320 671h-122v-386h-44v386h-122v41h288v-41z" />
    <glyph glyph-name="partialdiff" unicode="&#x2202;" horiz-adv-x="540" 
d="M443 241q0 -134 -58 -194q-51 -53 -129 -53t-129 53q-58 60 -58 194q0 139 58 197q50 50 122 50q92 0 143 -68v86q0 75 -36.5 121t-109.5 46q-42 0 -67.5 -12t-57.5 -41l-33 33q41 36 74 50.5t84 14.5q93 0 145 -57t52 -152v-268zM392 241q0 118 -41 161q-39 41 -95 41
t-95 -41q-41 -43 -41 -161t41 -161q39 -41 95 -41t95 41q41 43 41 161z" />
    <glyph glyph-name="product" unicode="&#x220f;" horiz-adv-x="699" 
d="M589 -230h-54v942h-371v-942h-54v990h479v-990z" />
    <glyph glyph-name="summation" unicode="&#x2211;" horiz-adv-x="551" 
d="M495 -230h-432v48l207 461l-207 433v48h432v-48h-371l195 -409v-48l-195 -437h371v-48z" />
    <glyph glyph-name="minus" unicode="&#x2212;" 
d="M461 240h-408v47h408v-47z" />
    <glyph glyph-name="radical" unicode="&#x221a;" horiz-adv-x="550" 
d="M520 664h-88l-217 -664h-46l-159 482h56l126 -387l199 617h129v-48z" />
    <glyph glyph-name="infinity" unicode="&#x221e;" horiz-adv-x="792" 
d="M720 260q0 -64 -41.5 -106t-105.5 -42q-51 0 -90.5 24.5t-86.5 83.5q-47 -59 -87 -84t-89 -25q-64 0 -106 42.5t-42 106.5t42 107t106 43q48 0 88.5 -25.5t87.5 -84.5q48 60 87 85t90 25q64 0 105.5 -43t41.5 -107zM672 260q0 46 -28.5 74.5t-74.5 28.5q-37 0 -67.5 -24
t-75.5 -79q45 -54 75.5 -78t67.5 -24q46 0 74.5 28t28.5 74zM366 260q-46 56 -76 80.5t-67 24.5q-46 0 -74.5 -29.5t-28.5 -75.5t28.5 -74t74.5 -28q37 0 67.5 24t75.5 78z" />
    <glyph glyph-name="integral" unicode="&#x222b;" horiz-adv-x="329" 
d="M299 667h-35q-74 0 -74 -80v-691q0 -57 -30.5 -91.5t-85.5 -34.5h-44v45h35q74 0 74 80v691q0 57 30.5 91.5t85.5 34.5h44v-45z" />
    <glyph glyph-name="approxequal" unicode="&#x2248;" 
d="M461 357q-39 -39 -62 -50.5t-54 -11.5q-28 0 -102 31q-54 23 -76 23t-38 -8t-45 -37l-31 31q39 39 62 50.5t54 11.5q28 0 102 -31q54 -23 76 -23t38 8t45 37zM461 197q-39 -39 -62 -50.5t-54 -11.5q-28 0 -102 31q-54 23 -76 23t-38 -8t-45 -37l-31 31q39 39 62 50.5
t54 11.5q28 0 102 -31q54 -23 76 -23t38 8t45 37z" />
    <glyph glyph-name="notequal" unicode="&#x2260;" 
d="M461 163h-271l-104 -104l-33 33l71 71h-71v47h118l106 106h-224v47h271l104 104l33 -33l-71 -71h71v-47h-118l-106 -106h224v-47z" />
    <glyph glyph-name="lessequal" unicode="&#x2264;" horiz-adv-x="1027" 
d="M854 -42l-35 -35l-580 579v-536l-48 48v572h571l49 -49h-536z" />
    <glyph glyph-name="greaterequal" unicode="&#x2265;" horiz-adv-x="1027" 
d="M836 14l-48 -48v536l-580 -579l-35 35l579 579h-536l49 49h571v-572z" />
    <glyph glyph-name="lozenge" unicode="&#x25ca;" horiz-adv-x="654" 
d="M582 356l-255 -363l-255 363l255 363zM525 356l-198 285l-198 -285l198 -287z" />
    <glyph glyph-name="fi" unicode="&#xfb01;" horiz-adv-x="547" 
d="M456 649h-63v63h63v-63zM450 0h-51v482h51v-482zM272 444h-109v-444h-51v444h-66v38h66v104q0 57 30.5 91.5t85.5 34.5h44v-45h-35q-74 0 -74 -80v-105h109v-38z" />
    <glyph glyph-name="fl" unicode="&#xfb02;" horiz-adv-x="586" 
d="M554 0h-44q-57 0 -86.5 33.5t-29.5 91.5v587h51v-586q0 -42 16.5 -61.5t57.5 -19.5h35v-45zM272 444h-109v-444h-51v444h-66v38h66v104q0 57 30.5 91.5t85.5 34.5h44v-45h-35q-74 0 -74 -80v-105h109v-38z" />
    </font>
</defs>
</svg>
